El Pacto De Los Lobos (Version.. BluRayRip AC3 5.1
The Legend of Chusen / Noble Aspirations (2016)

Maya The Bee The Honey Games 2018 Movies Torrent Free Download

Seeders : 977   &   Leechers : 263      16-05-2018 (5 days)
Maya The Bee The Honey Games 2018 Movies Torrent Download
Added: ago by nehalpuja ***** in Movies   830.9 MB   Hits : 17
Info Hash: 336EA48585F7E4BC6F4AA24D4F9495E6CA45FF49 Download
Maya The Bee The Honey Games 2018 Movies Torrent Download

Anonymous and Direct Download movies , software , shows...

Fast Safe Anonymous
movies, software, shows...
Maya the Bee: The Honey Games
Animation /Comedy /Family  .   83 min   6.0/10
Tags: Maya  The  Bee  The  Honey  Games  

Released:
01 May 2018
When an overenthusiastic Maya accidentally embarrasses the Empress of Buzztropolis, she is forced to unite with a team of misfit bugs and compete in the Honey Games for a chance to save her hive.

Torrent Description



Maya The Bee The Honey Games 2018 Movies 720p BluRay x264 5.1 with Sample ☻rDX☻
===============================================================================================

SCREEN SHOTS:



or

http://iphonehosting.eu/2018/5/doctor/1.html

File size : 822 MiB
Duration : 1 h 24 min
Overall bit rate : 1 356 kb/s
Movie name : Maya The Bee The Honey Games 2018 Movies 720p BluRay x264 5.1 ☻rDX☻

Video
ID : 2
Format : AVC
Format/Info : Advanced Video Codec
Format profile : [email protected]
Format settings, CABAC : Yes
Format settings, ReFrames : 4 frames
Codec ID : V_MPEG4/ISO/AVC
Duration : 1 h 24 min
Bit rate : 906 kb/s
Width : 1 280 pixels
Height : 696 pixels
Display aspect ratio : 1.85:1
Frame rate mode : Constant
Frame rate : 23.976 (24000/1001) FPS
Color space : YUV
Chroma subsampling : 4:2:0
Bit depth : 8 bits
Scan type : Progressive
Bits/(Pixel*Frame) : 0.042
Stream size : 534 MiB (65%)
Title : ☻rDX☻
Writing library : x264

Audio
ID : 1
Format : AC-3
Format/Info : Audio Coding 3
Mode extension : CM (complete main)
Format settings, Endianness : Big
Codec ID : A_AC3
Duration : 1 h 24 min
Bit rate mode : Constant
Bit rate : 448 kb/s
Channel(s) : 6 channels
Channel positions : Front: L C R, Side: L R, LFE
Sampling rate : 48.0 kHz
Frame rate : 31.250 FPS (1536 spf)
Bit depth : 16 bits
Compression mode : Lossy
Delay relative to video : -21 ms
Stream size : 272 MiB (33%)
Title : ☻rDX☻
Language : English
Default : No
Forced : No



IMDB : http://www.imdb.com/title/tt6685596




Sharing Widget


No Comments For This Torrent . Be The First to Comment

You must Login to Comment . Click Here to Login

Menu 1

Some content in menu 1.

Maya The Bee The Honey Games 2018 Movies 720p BluRay x264 5 1 with Sam (Size: 830.9 MB)
  Maya The Bee The Honey Games 2018 Movies 720p BluRay x264 5 1 with Sam 830.9 MB
tracker name
udp://tracker.leechers-paradise.org:6969/announce
udp://zer0day.ch:1337/announce
udp://open.demonii.com:1337/announce
udp://tracker.coppersurfer.tk:6969/announce
udp://exodus.desync.com:6969/announce
µTorrent compatible trackers list

Relative Torrents

Torrent Name Size Age SEED LEECH
SashaTanja s06 2018 XviD HDTVRip Generalilm
Posted by    iDope   in   TV
556.1 MB 4 minutes 103 659
[ www Torrent9 Red ] iZombie S03E12 FRENH BDRip XviD-ZT avi
Posted by    iDope   in   TV
350.6 MB 4 minutes 922 854
Various Artists - 복면가왕 152회 [필레이션] [FLAC]
Posted by    iDope   in   Music
162.0 MB 4 minutes 748 779
www Torrenting com - Bad Guys Vile City 01E12 XviD-AFG
Posted by    iDope   in   TV
537.9 MB 4 minutes 292 485
CYW The frontier of love EP18-19 2018 100p WEB-DL H264 AAC-无水印 菜牙电
Posted by    iDope   in   Video
1.0 GB 4 minutes 827 705